Latest Uploads
isometric test

realtime

dungeon ma ... litz basic

realtime

Crystal Ca ... een So Far

rychan

Crystal Ca ... Screen V1

rychan

Day 5 Graphic

rychan

Mutanty Mo ... Workfiles.

steve_ancell

Back to spinal's Blog ( Created 07 December 2011 | Last Edited 20 December 2011)
Development Diary : Convert any 3d video to 3DS format
Watch movies on your 3DS!
OK, having updated your 3DS no doubt you'll want to watch videos on it in 3D. So, here's how

The 3DS video format is a simple avi with two mjpeg video streams and a single ima adpcm audio stream, with a resolution of 480x240. You can convert to it with the following instructions...


1. Download or rip your 3D video (youtube has millions of them by now)

2. Download ffmpeg.

3. run the ffmpeg with the following options (assuming that your video is called "video.avi")

If your 3D video is top-bottom format -
-->

If your 3D video is side-by-side format -
-->

After a short time, you should have "left.avi" and "right.avi". It is now safe to move continue...

note - if the filesize is too large, you can adjust the quality by changing the "-qscale 1" to a different number, 1 - best, 31 = worst.

4. run ffmpeg with the following options to create the final movie file...
-->

You can change "VID_0001.AVI" to a different filename if you like, but it must be LLL_NNNN.AVI to show up on the 3DS.

Once that's done, copy it to the folder on your SD card that all of your photos are stored in and view it in the photo viewer.

*update Some people wanted a 2D version also, so here it is, just a single step for the 2D version
-->

I have added a nice GUI converter to the whole process, making everything just that little bit easier for everyone



download 3DSMovie

Latest Comments

Posted : Sunday, 11 December 2011, 18:20
steveawesome


I've been shooting SBS (side by side) stereo video for my site for the last year and I'm indebted to you guys for breaking out with the first real thread on this topic. I'm busy doing this via batch file using the command lines in the comment thread (the GUI was producing weird results and, without knowing what the command line it was using to kick off, I wasn't able to troubleshoot properly).

FYI, most of my work isn't exactly G-Rated, but I will only be sharing samples of work that are 100% family friendly (provided your family is cool with HBO).

Steve

Posted : Sunday, 25 December 2011, 16:22
GulesArgentAzure


Tested this out, works beautifully for the basics, but I seem to be having some really severe audio desynchronization issues with longer videos (Video outpacing the audio by a good bit). Perhaps it's fixable in the configuration or something? I used the default settings for pretty much everything.

Posted : Monday, 26 December 2011, 00:55
spinal


It might be something to do with the audio being transcoded twice. I'll have to find a way around that

Homepage : http://spinalcode.co.uk
Posted : Wednesday, 28 December 2011, 03:12
takopus


I've spent half of the last night trying to figure how to merge several 3DS-made AVIs into one (i had a lot of short ones and wanted to have them just together). This post was very helpful, thank you!
Just in case someone interested, i've figured a way to do it, and without transcoding.

1. AVIs must be demuxed into right and left video streams and audio stream. Do it with ffmpeg.

2. Both left and right video streams can be merged into one (two) by mencoder, and audio strem with SoX. You can't just leave audio stream in one of video AVIs: mencoder merging it without problems, but 3DS can't play it after all.

3. Finally, whole left and right video streams and audio stream muxing back together, once again with ffmpeg.

If someone interested, i can post params on running each of these steps. Also i made a nice little batch for all of it, you can get it here with all tools included. Just place any 3DS-made AVI files into video_parts folder, run the batch and you will get a RES_0000.AVI file in the same folder where batch is.
Hope somebody will find it helpful too.

Posted : Saturday, 31 December 2011, 11:49
thewaltonboy


Ok hello everyone

Is anyone else trying to do this on a Mac? Im getting left and right avi fine but when I try and do the final stage:

ffmpeg -y -i "left.avi" -i "right.avi" -vcodec copy -acodec adpcm_ima_wav -ac 2 -vcodec copy -map 0:0 -map 0:1 -map 1:0 "VID_0001.AVI"

Im getting the error message:

Input #0, avi, from 'left.avi':
Metadata:
encoder : Lavf52.93.0
Duration: 00:00:26.33, start: 0.000000, bitrate: 1477 kb/s
Stream #0.0: Video: mjpeg, yuvj420p, 400x240, PAR 3:5 DAR 1:1, 20 tbr, 20 tbn, 20 tbc
Stream #0.1: Audio: mp3, 44100 Hz, 2 channels, s16, 96 kb/s
Input #1, avi, from 'right.avi':
Metadata:
encoder : Lavf52.93.0
Duration: 00:00:26.05, start: 0.000000, bitrate: 1383 kb/s
Stream #1.0: Video: mjpeg, yuvj420p, 400x240, PAR 3:5 DAR 1:1, 20 tbr, 20 tbn, 20 tbc
Number of stream maps must match number of output streams


i thought I had a video and an audio stream (left.avi) and another video (right.avi) so dont see why the stream maps dont match?! Grrrr

And its driving me crazy. Im a total noob to ffmpeg, so if anyone helps me Ill be their best friend forever. Christmas has gone but I'll remember for next year...

x

Posted : Saturday, 31 December 2011, 13:02
spinal


try replacing -an (for the right.avi) with -acodec libmp3lame -ar 44100 -ab 96k -ac 2
it might not be reading the audio properly from the left.avi.

Homepage : http://spinalcode.co.uk
Posted : Saturday, 31 December 2011, 13:22
thewaltonboy


Thanks for the try Mr.Spinal but still no love, still getting the whole

Number of stream maps must match number of output streams rubbish...

Posted : Sunday, 01 January 2012, 07:18
spinal


If you can find any software that can convert to Fujifilm 3D avi format with the same (or lower) resolution as the 3DS, it should work (I haven't yet found anything satisfactory for windows)...

Homepage : http://spinalcode.co.uk
Posted : Monday, 16 January 2012, 09:13
yousie642


I'm trying to use the GUI, but when I click Convert, the process takes about 2 seconds and all it produces is a 14kb file. I've gotten the same result with 3 different 3D videos. Help, please.

Posted : Saturday, 25 February 2012, 01:46
dudus


Why not put it in one line:
-->
Oh, I also zoomed in a little so that the depth in the 3D effect is greater on the tiny screen.

Posted : Monday, 27 February 2012, 08:55
spinal


Doesn't work, both streams are the same side of the video.

Homepage : http://spinalcode.co.uk
Posted : Tuesday, 28 February 2012, 04:56
dudus


I'm really sorry and also feeling pretty stupid.
Will continue to search a solution for the one-line-conversion

Posted : Tuesday, 28 February 2012, 11:44
spinal


Don't worry about it, it took me a couple of days to give up one a one line version.

the problem is, if you use two different videos, it crops correctly, but if you use the same video twice, it looks like the second setting overrules the first.

Homepage : http://spinalcode.co.uk
Posted : Thursday, 08 March 2012, 07:44
guest


So, my first video (done with the most recent GUI, because I have absolutely zero ffmpeg experience) worked fine. The second one, not so much. Just as yousie, the output was a 14k file. After trying it with every option possible, all to the same result, I basically gave up, but made several observations:
- The program starts demuxing left and right, but it gets to 10k for the left file, freezes up for a bit, and then goes onto the right file
- The right file doesn't even get a single kilobyte of data, then the converter dumps your converted file, gives you a signal "I'm done!" and you're left wondering what happened.

Most interestingly, I downloaded the beta-beta, and it appears to be working fine, for the same video. While I think it's a video-specific issue, I don't know why it's decided to work in this case...

But yeah...just use the older one and it appears to work. Perhaps someone with much more know-how can do a more thorough analysis of why this is happening.

Posted : Friday, 09 March 2012, 03:20
spinal


Perhaps ffmpeg doesn't like doing the croping and resizing with the specific format of the video. Perhaps converting it to a different format first might help?

Homepage : http://spinalcode.co.uk
Posted : Friday, 09 March 2012, 17:40
guest


Oooh...another problem. So, having converted two more videos, trying to play them on the 3DS, it returned an error saying the video format wasn't recognized. Going back onto my computer and analyzing the videos, first thing I noticed is that the working video shows a resolution, length, etc in its properties, while the two new files don't show anything in their details. What could be causing this? I will look into it more.

Posted : Saturday, 10 March 2012, 13:21
spinal


Have you tried using the command line version as a explained before the GUI?
It really is as simple as making a .bat file (plain text with .bat instead of .txt) and changing the name of video.avi to the name of the video you're converting.

Homepage : http://spinalcode.co.uk
Posted : Wednesday, 21 March 2012, 18:46
damorsoft


This is what worked for all..

You need H264StereoSource.dll or Pantarheon3D.avsi on the folder..


Run...ffmpeg -i test1.avi
ffmpeg version N-38622-g1eabd71 Copyright © 2000-2012 the FFmpeg developers
built on Mar 7 2012 00:18:03 with gcc 4.6.2
configuration: --enable-gpl --enable-version3 --disable-w32threads --enable-runtime-cpudetect --enable-avisynth --enable-bzlib --enable-frei0r --enable-lib
libavutil 51. 42.100 / 51. 42.100
libavcodec 54. 10.100 / 54. 10.100
libavformat 54. 2.100 / 54. 2.100
libavdevice 53. 4.100 / 53. 4.100
libavfilter 2. 63.100 / 2. 63.100
libswscale 2. 1.100 / 2. 1.100
libswresample 0. 7.100 / 0. 7.100
libpostproc 52. 0.100 / 52. 0.100
Input #0, avi, from 'test1.avi':
Duration: 00:01:28.99, start: 0.000000, bitrate: 50207 kb/s
===>Stream #0:0: Video: mjpeg (MJPG / 0x47504A4D), yuvj422p, 1280x720, 24 tbr, 24 tbn, 24 tbc
Metadata:
title : FUJIFILM AVI STREAM 0200
===>Stream #0:1: Audio: pcm_s16le ([1][0][0][0] / 0x0001), 48000 Hz, 2 channels, s16, 1536 kb/s
===>Stream #0:2: Video: mjpeg (MJPG / 0x47504A4D), yuvj422p, 1280x720, 24 tbr, 24 tbn, 24 tbc
Metadata:
title : FUJIFILM AVI STREAM 0200

NOTE....input streams and extract the left.avi and right.avi

LEFT
c:\ffmpeg -y -i "test1.avi" -map 0:0 -vcodec mjpeg -q:v 1 -map 0:1 -acodec copy "left.avi"
RIGHT
c:\ffmpeg -y -i "test1.avi" -map 0:2 -vcodec mjpeg -q:v 1 "right.avi"

next join files into halfSBS

SBS.avs file

lv = DirectShowSource("left.avi")
rv = DirectShowSource("right.avi")
#Using ....Pantarheon3D.avsi version
#stacked = LeftRight3DReduced(lv, rv)
#Using ....the H264StereoSource.dll Version
stacked = StackHorizontal(HorizontalReduceBy2(lv), HorizontalReduceBy2(rv))
ConvertToYV12(stacked)


SBS.cmd file

c:\x264 --level 4.1 --bitrate 18300 --vbv-bufsize 30000 --vbv-maxrate 40000 --fps 24.000 --force-cfr --preset fast --frame-packing 3 -o 3dpat.mkv SBS.avs
Comment Goes Here!

Posted : Wednesday, 04 April 2012, 17:01
Miguel


When i try the 2d code, with a 5 minutes 7 second video, I get a 28 minutes 29 seconds video, What did I do wrong?

Here is the ffmpeg output:



[Me@Hewlett-Packard Downloads]$ ffmpeg -i "0042473.flv" -s 400x240 -aspect 2:1 -r 20 -vcodec mjpeg -qscale 1 -acodec adpcm_ima_wav -ac 2 "VID_0001.AVI"
ffmpeg version 0.8.10, Copyright © 2000-2011 the FFmpeg developers
built on Feb 29 2012 16:30:44 with gcc 4.6.2 20111027 (Red Hat 4.6.2-1)
configuration: --prefix=/usr --bindir=/usr/bin --datadir=/usr/share/ffmpeg --incdir=/usr/include/ffmpeg --libdir=/usr/lib64 --mandir=/usr/share/man --arch=x86_64 --extra-cflags='-O2 -g -pipe -Wall -Wp,-D_FORTIFY_SOURCE=2 -fexceptions -fstack-protector --param=ssp-buffer-size=4 -m64 -mtune=generic' --enable-bzlib --enable-libcelt --enable-libdc1394 --enable-libdirac --enable-libfreetype --enable-libgsm --enable-libmp3lame --enable-libopenjpeg --enable-librtmp --enable-libschroedinger --enable-libspeex --enable-libtheora --enable-libvorbis --enable-libvpx --enable-libx264 --enable-libxvid --enable-x11grab --enable-avfilter --enable-postproc --enable-pthreads --disable-static --enable-shared --enable-gpl --disable-debug --disable-stripping --shlibdir=/usr/lib64 --enable-runtime-cpudetect
libavutil 51. 9. 1 / 51. 9. 1
libavcodec 53. 8. 0 / 53. 8. 0
libavformat 53. 5. 0 / 53. 5. 0
libavdevice 53. 1. 1 / 53. 1. 1
libavfilter 2. 23. 0 / 2. 23. 0
libswscale 2. 0. 0 / 2. 0. 0
libpostproc 51. 2. 0 / 51. 2. 0
[flv @ 0x2165600] Estimating duration from bitrate, this may be inaccurate

Seems stream 0 codec frame rate differs from container frame rate: 59.94 (2997/50) -> 29.97 (30000/1001)
Input #0, flv, from '0042473.flv':
Metadata:
minor_version : 1
stereo : true
videocodecid : 7
audiodatarate : 62
audiosamplerate : 44100
audiosize : 2476815
canSeekToEnd : true
creation_time : 2011-05-01 18:06:43
copyright :
compatible_brands: isomavc1
datasize : 16589374
duration : 308
copyright-eng :
encoder : Lavf52.104.0
videodatarate : 351
hasAudio : true
hasCuePoints : false
hasKeyframes : true
hasMetadata : true
hasVideo : true
width : 480
lasttimestamp : 308
audiocodecid : 10
metadatacreator : flvtool++ (Facebook, Motion project, dweatherford)
major_brand : isom
audiosamplesize : 16
totalframes : 9225
framerate : 30
height : 272
videosize : 13863389
filesize : 16587742
Duration: 00:05:07.94, start: 0.000000, bitrate: 423 kb/s
Stream #0.0: Video: h264 (High), yuv420p, 480x272 [PAR 1:1 DAR 30:17], 359 kb/s, 29.97 tbr, 1k tbn, 59.94 tbc
Stream #0.1: Audio: aac, 44100 Hz, stereo, s16, 63 kb/s
Incompatible pixel format 'yuv420p' for codec 'mjpeg', auto-selecting format 'yuvj420p'
[buffer @ 0x216b180] w:480 h:272 pixfmt:yuv420p tb:1/1000000 sar:1/1 sws_param:
[scale @ 0x216bf40] w:480 h:272 fmt:yuv420p -> w:400 h:240 fmt:yuvj420p flags:0x4
Output #0, avi, to 'VID_0001.AVI':
Metadata:
minor_version : 1
stereo : true
videocodecid : 7
audiodatarate : 62
audiosamplerate : 44100
audiosize : 2476815
canSeekToEnd : true
creation_time : 2011-05-01 18:06:43
ICOP :
compatible_brands: isomavc1
datasize : 16589374
duration : 308
copyright-eng :
filesize : 16587742
videodatarate : 351
hasAudio : true
hasCuePoints : false
hasKeyframes : true
hasMetadata : true
hasVideo : true
width : 480
lasttimestamp : 308
audiocodecid : 10
metadatacreator : flvtool++ (Facebook, Motion project, dweatherford)
major_brand : isom
audiosamplesize : 16
totalframes : 9225
framerate : 30
height : 272
videosize : 13863389
ISFT : Lavf53.5.0
Stream #0.0: Video: mjpeg, yuvj420p, 400x240 [PAR 6:5 DAR 2:1], q=2-31, 200 kb/s, 20 tbn, 20 tbc
Stream #0.1: Audio: adpcm_ima_wav, 44100 Hz, stereo, s16, 352 kb/s
Stream mapping:
Stream #0.0 -> #0.0
Stream #0.1 -> #0.1
Press [q] to stop, [?] for help
frame= 43 fps= 0 q=1.0 size= 1330kB time=00:00:02.12 bitrate=5135.7kbits/sframe= 87 fps= 86 q=1.0 size= 2712kB time=00:00:04.35 bitrate=5097.2kbits/sframe= 135 fps= 89 q=1.0 size= 3579kB time=00:00:06.78 bitrate=4324.9kbits/sframe= 185 fps= 92 q=1.0 size= 4307kB time=00:00:09.27 bitrate=3805.9kbits/sframe= 231 fps= 92 q=1.0 size= 5208kB time=00:00:11.55 bitrate=3692.4kbits/sframe= 276 fps= 91 q=1.0 size= 6129kB time=00:00:13.83 bitrate=3628.5kbits/sframe= 318 fps= 90 q=1.0 size= 6978kB time=00:00:15.91 bitrate=3592.6kbits/sframe= 366 fps= 91 q=1.0 size= 7990kB time=00:00:18.33 bitrate=3570.2kbits/sframe= 408 fps= 90 q=1.0 size= 8912kB time=00:00:20.43 bitrate=3573.2kbits/sframe= 451 fps= 90 q=1.0 size= 9831kB time=00:00:22.55 bitrate=3570.9kbits/sframe= 495 fps= 89 q=1.0 size= 10827kB time=00:00:24.74 bitrate=3584.4kbits/sframe= 539 fps= 89 q=1.0 size= 11845kB time=00:00:26.91 bitrate=3605.5kbits/sframe= 583 fps= 89 q=1.0 size= 12939kB time=00:00:29.14 bitrate=3636.2kbits/sframe= 630 fps= 89 q=1.0 size= 13790kB time=00:00:31.52 bitrate=3583.5kbits/sframe= 676 fps= 89 q=1.0 size= 14710kB time=00:00:33.80 bitrate=3564.4kbits/sframe= 723 fps= 90 q=1.0 size= 15651kB time=00:00:36.16 bitrate=3545.7kbits/sframe= 767 fps= 90 q=1.0 size= 16589kB time=00:00:38.35 bitrate=3543.6kbits/sframe= 809 fps= 89 q=1.0 size= 17576kB time=00:00:40.42 bitrate=3561.7kbits/sframe= 852 fps= 89 q=1.0 size= 18598kB time=00:00:42.61 bitrate=3575.0kbits/sframe= 898 fps= 89 q=1.0 size= 19548kB time=00:00:44.90 bitrate=3566.6kbits/sframe= 940 fps= 89 q=1.0 size= 20666kB time=00:00:46.97 bitrate=3603.9kbits/sframe= 982 fps= 89 q=1.0 size= 21739kB time=00:00:49.12 bitrate=3625.5kbits/sframe= 1024 fps= 88 q=1.0 size= 22711kB time=00:00:51.25 bitrate=3630.2kbits/sframe= 1070 fps= 88 q=1.0 size= 23769kB time=00:00:53.47 bitrate=3640.9kbits/sframe= 1118 fps= 89 q=1.0 size= 24935kB time=00:00:55.90 bitrate=3654.2kbits/sframe= 1165 fps= 89 q=1.0 size= 26047kB time=00:00:58.22 bitrate=3664.3kbits/sframe= 1213 fps= 89 q=1.0 size= 27187kB time=00:01:00.62 bitrate=3673.5kbits/sframe= 1265 fps= 90 q=1.0 size= 27935kB time=00:01:03.23 bitrate=3619.0kbits/sframe= 1315 fps= 90 q=1.0 size= 28590kB time=00:01:05.79 bitrate=3559.7kbits/sframe= 1366 fps= 90 q=1.0 size= 29229kB time=00:01:08.30 bitrate=3505.3kbits/sframe= 1415 fps= 91 q=1.0 size= 29928kB time=00:01:10.75 bitrate=3465.2kbits/sframe= 1464 fps= 91 q=1.0 size= 30612kB time=00:01:13.25 bitrate=3423.5kbits/sframe= 1512 fps= 91 q=1.0 size= 31309kB time=00:01:15.64 bitrate=3390.8kbits/sframe= 1561 fps= 91 q=1.0 size= 31997kB time=00:01:18.06 bitrate=3357.8kbits/sframe= 1608 fps= 91 q=1.0 size= 32760kB time=00:01:20.36 bitrate=3339.3kbits/sframe= 1654 fps= 91 q=1.0 size= 33563kB time=00:01:22.69 bitrate=3324.7kbits/sframe= 1700 fps= 91 q=1.0 size= 34318kB time=00:01:24.98 bitrate=3308.2kbits/sframe= 1745 fps= 91 q=1.0 size= 35041kB time=00:01:27.24 bitrate=3290.4kbits/sframe= 1791 fps= 91 q=1.0 size= 35749kB time=00:01:29.56 bitrate=3269.6kbits/sframe= 1837 fps= 91 q=1.0 size= 36442kB time=00:01:31.85 bitrate=3250.1kbits/sframe= 1884 fps= 91 q=1.0 size= 37121kB time=00:01:34.20 bitrate=3228.0kbits/sframe= 1931 fps= 91 q=1.0 size= 37840kB time=00:01:36.53 bitrate=3211.1kbits/sframe= 1978 fps= 91 q=1.0 size= 38561kB time=00:01:38.90 bitrate=3193.8kbits/sframe= 2025 fps= 91 q=1.0 size= 39279kB time=00:01:41.28 bitrate=3176.9kbits/sframe= 2072 fps= 91 q=1.0 size= 40005kB time=00:01:43.59 bitrate=3163.6kbits/sframe= 2117 fps= 91 q=1.0 size= 40833kB time=00:01:45.87 bitrate=3159.5kbits/sframe= 2158 fps= 91 q=1.0 size= 41561kB time=00:01:47.90 bitrate=3155.3kbits/sframe= 2202 fps= 91 q=1.0 size= 42407kB time=00:01:50.14 bitrate=3154.1kbits/sframe= 2248 fps= 91 q=1.0 size= 43201kB time=00:01:52.42 bitrate=3147.9kbits/sframe= 2295 fps= 91 q=1.0 size= 43975kB time=00:01:54.75 bitrate=3139.3kbits/sframe= 2342 fps= 91 q=1.0 size= 44739kB time=00:01:57.10 bitrate=3129.7kbits/sframe= 2388 fps= 91 q=1.0 size= 45532kB time=00:01:59.43 bitrate=3123.0kbits/sframe= 2435 fps= 91 q=1.0 size= 46306kB time=00:02:01.80 bitrate=3114.5kbits/sframe= 2481 fps= 91 q=1.0 size= 47095kB time=00:02:04.02 bitrate=3110.7kbits/sframe= 2530 fps= 91 q=1.0 size= 47778kB time=00:02:06.49 bitrate=3094.3kbits/sframe= 2578 fps= 91 q=1.0 size= 48507kB time=00:02:08.91 bitrate=3082.5kbits/sframe= 2622 fps= 91 q=1.0 size= 49169kB time=00:02:11.08 bitrate=3072.9kbits/sframe= 2670 fps= 91 q=1.0 size= 49851kB time=00:02:13.54 bitrate=3057.9kbits/sframe= 2718 fps= 91 q=1.0 size= 50531kB time=00:02:15.92 bitrate=3045.5kbits/sframe= 2764 fps= 91 q=1.0 size= 51242kB time=00:02:18.18 bitrate=3037.8kbits/sframe= 2810 fps= 92 q=1.0 size= 51959kB time=00:02:20.51 bitrate=3029.3kbits/sframe= 2835 fps= 90 q=1.0 size= 52376kB time=00:02:21.78 bitrate=3026.2kbits/sframe= 2879 fps= 90 q=1.0 size= 53093kB time=00:02:23.94 bitrate=3021.5kbits/sframe= 2923 fps= 90 q=1.0 size= 53853kB time=00:02:26.18 bitrate=3017.8kbits/sframe= 2968 fps= 90 q=1.0 size= 54594kB time=00:02:28.39 bitrate=3013.7kbits/sframe= 3012 fps= 90 q=1.0 size= 55444kB time=00:02:30.63 bitrate=3015.2kbits/sframe= 3056 fps= 90 q=1.0 size= 56495kB time=00:02:32.78 bitrate=3029.2kbits/sframe= 3098 fps= 90 q=1.0 size= 57463kB time=00:02:34.90 bitrate=3039.0kbits/sframe= 3141 fps= 90 q=1.0 size= 58433kB time=00:02:37.04 bitrate=3048.0kbits/sframe= 3186 fps= 90 q=1.0 size= 59457kB time=00:02:39.33 bitrate=3057.0kbits/sframe= 3232 fps= 90 q=1.0 size= 60471kB time=00:02:41.59 bitrate=3065.6kbits/sframe= 3277 fps= 90 q=1.0 size= 61485kB time=00:02:43.82 bitrate=3074.5kbits/sframe= 3322 fps= 90 q=1.0 size= 62297kB time=00:02:46.11 bitrate=3072.3kbits/sframe= 3365 fps= 90 q=1.0 size= 63043kB time=00:02:48.27 bitrate=3069.0kbits/sframe= 3409 fps= 90 q=1.0 size= 63752kB time=00:02:50.46 bitrate=3063.7kbits/sframe= 3455 fps= 90 q=1.0 size= 64529kB time=00:02:52.75 bitrate=3060.0kbits/sframe= 3499 fps= 90 q=1.0 size= 65306kB time=00:02:54.96 bitrate=3057.7kbits/sframe= 3545 fps= 90 q=1.0 size= 66070kB time=00:02:57.24 bitrate=3053.6kbits/sframe= 3594 fps= 90 q=1.0 size= 66804kB time=00:02:59.71 bitrate=3045.1kbits/sframe= 3644 fps= 90 q=1.0 size= 67554kB time=00:03:02.18 bitrate=3037.6kbits/sframe= 3690 fps= 90 q=1.0 size= 68436kB time=00:03:04.48 bitrate=3038.8kbits/sframe= 3740 fps= 90 q=1.0 size= 69121kB time=00:03:07.00 bitrate=3028.0kbits/sframe= 3787 fps= 90 q=1.0 size= 69953kB time=00:03:09.33 bitrate=3026.7kbits/sframe= 3832 fps= 90 q=1.0 size= 70857kB time=00:03:11.59 bitrate=3029.7kbits/sframe= 3878 fps= 90 q=1.0 size= 71622kB time=00:03:13.92 bitrate=3025.6kbits/sframe= 3925 fps= 90 q=1.0 size= 72343kB time=00:03:16.25 bitrate=3019.8kbits/sframe= 3973 fps= 90 q=1.0 size= 73100kB time=00:03:18.64 bitrate=3014.5kbits/sframe= 4021 fps= 90 q=1.0 size= 73867kB time=00:03:21.07 bitrate=3009.5kbits/sframe= 4070 fps= 90 q=1.0 size= 74643kB time=00:03:23.53 bitrate=3004.2kbits/sframe= 4119 fps= 90 q=1.0 size= 75363kB time=00:03:25.95 bitrate=2997.6kbits/sframe= 4167 fps= 90 q=1.0 size= 76077kB time=00:03:28.35 bitrate=2991.1kbits/sframe= 4216 fps= 91 q=1.0 size= 76751kB time=00:03:30.77 bitrate=2983.0kbits/sframe= 4263 fps= 91 q=1.0 size= 77432kB time=00:03:33.15 bitrate=2975.9kbits/sframe= 4315 fps= 91 q=1.0 size= 78087kB time=00:03:35.73 bitrate=2965.1kbits/sframe= 4367 fps= 91 q=1.0 size= 78795kB time=00:03:38.34 bitrate=2956.3kbits/sframe= 4418 fps= 91 q=1.0 size= 79475kB time=00:03:40.90 bitrate=2947.2kbits/sframe= 4469 fps= 91 q=1.0 size= 80174kB time=00:03:43.46 bitrate=2939.1kbits/sframe= 4519 fps= 91 q=1.0 size= 80865kB time=00:03:45.90 bitrate=2932.4kbits/sframe= 4567 fps= 91 q=1.0 size= 81621kB time=00:03:48.32 bitrate=2928.4kbits/sframe= 4611 fps= 91 q=1.0 size= 82613kB time=00:03:50.56 bitrate=2935.2kbits/sframe= 4655 fps= 91 q=1.0 size= 83653kB time=00:03:52.80 bitrate=2943.7kbits/sframe= 4699 fps= 91 q=1.0 size= 84646kB time=00:03:54.97 bitrate=2951.1kbits/sframe= 4743 fps= 91 q=1.0 size= 85543kB time=00:03:57.20 bitrate=2954.3kbits/sframe= 4789 fps= 91 q=1.0 size= 86344kB time=00:03:59.42 bitrate=2954.3kbits/sframe= 4836 fps= 91 q=1.0 size= 87090kB time=00:04:01.79 bitrate=2950.6kbits/sframe= 4883 fps= 91 q=1.0 size= 87821kB time=00:04:04.17 bitrate=2946.4kbits/sframe= 4930 fps= 91 q=1.0 size= 88571kB time=00:04:06.50 bitrate=2943.5kbits/sframe= 4977 fps= 91 q=1.0 size= 89318kB time=00:04:08.85 bitrate=2940.3kbits/sframe= 5024 fps= 91 q=1.0 size= 90014kB time=00:04:11.18 bitrate=2935.7kbits/sframe= 5070 fps= 91 q=1.0 size= 90743kB time=00:04:13.55 bitrate=2931.8kbits/sframe= 5120 fps= 91 q=1.0 size= 91438kB time=00:04:16.00 bitrate=2926.0kbits/sframe= 5165 fps= 91 q=1.0 size= 92265kB time=00:04:18.28 bitrate=2926.4kbits/sframe= 5211 fps= 91 q=1.0 size= 93079kB time=00:04:20.56 bitrate=2926.3kbits/sframe= 5258 fps= 91 q=1.0 size= 93913kB time=00:04:22.87 bitrate=2926.6kbits/sframe= 5304 fps= 91 q=1.0 size= 94739kB time=00:04:25.20 bitrate=2926.4kbits/sframe= 5351 fps= 91 q=1.0 size= 95565kB time=00:04:27.60 bitrate=2925.5kbits/sframe= 5398 fps= 91 q=1.0 size= 96368kB time=00:04:29.90 bitrate=2924.9kbits/sframe= 5444 fps= 91 q=1.0 size= 97176kB time=00:04:32.16 bitrate=2924.9kbits/sframe= 5490 fps= 91 q=1.0 size= 98049kB time=00:04:34.54 bitrate=2925.6kbits/sframe= 5538 fps= 91 q=1.0 size= 98914kB time=00:04:36.91 bitrate=2926.1kbits/sframe= 5587 fps= 91 q=1.0 size= 99817kB time=00:04:39.36 bitrate=2927.0kbits/sframe= 5636 fps= 91 q=1.0 size= 100709kB time=00:04:41.83 bitrate=2927.3kbits/sframe= 5682 fps= 91 q=1.0 size= 101490kB time=00:04:44.11 bitrate=2926.3kbits/sframe= 5732 fps= 91 q=1.0 size= 102230kB time=00:04:46.60 bitrate=2922.0kbits/sframe= 5781 fps= 91 q=1.0 size= 102991kB time=00:04:49.07 bitrate=2918.6kbits/sframe= 5827 fps= 91 q=1.0 size= 103918kB time=00:04:51.35 bitrate=2921.8kbits/sframe= 5874 fps= 92 q=1.0 size= 104873kB time=00:04:53.73 bitrate=2924.9kbits/sframe= 5921 fps= 92 q=1.0 size= 105844kB time=00:04:56.08 bitrate=2928.5kbits/sframe= 5970 fps= 92 q=1.0 size= 106670kB time=00:04:58.50 bitrate=2927.4kbits/sframe= 6028 fps= 92 q=1.0 size= 108198kB time=00:05:01.43 bitrate=2940.5kbits/sframe= 6080 fps= 91 q=1.0 size= 109527kB time=00:05:03.99 bitrate=2951.5kbits/sframe= 6138 fps= 92 q=1.0 size= 110623kB time=00:05:06.85 bitrate=2953.3kbits/sframe= 6156 fps= 92 q=1.0 Lsize= 111017kB time=00:05:07.85 bitrate=2954.2kbits/s dup=0 drop=3067
video:97193kB audio:13354kB global headers:0kB muxing overhead 0.425158%



Where is my problem?

Posted : Thursday, 05 April 2012, 08:48
guest


Hey! Finally figured out ffmpeg, compiled a few codey bits and got the conversion working! Thanks for the advice!

Posted : Thursday, 07 June 2012, 13:20
foxhunt72


Cool it works, only thing is the movie is on the 3ds in a random sequence, so have anyone a good idee to get it sorted on file name (sequence number)

Posted : Sunday, 10 June 2012, 05:20
spinal


You could try copying the files one at a time, other than that I can't help I'm afraid. There hasn't been enough interest for anyone to figure out nintentos timestamp to make use of that.

Homepage : http://spinalcode.co.uk
Posted : Friday, 28 December 2012, 00:09
futaris


To fix "Number of stream maps must match number of output streams" :

ffmpeg -y -i "left.avi" -i "right.avi" -vcodec copy -acodec adpcm_ima_wav -ar 22050 -ab 32 -ac 2 -vcodec copy "VID_0001.AVI" -newvideo -map 0:0 -map 0:1 -map 1:0 -ss 00:00:00 -t 00:09:59.90

Can you stream with the 3DS? - videomerge3d is a gstreamer script for this:

http://sourceforge.net/projects/videomerge3d/files/

Posted : Friday, 11 January 2013, 23:00
saifssj6


i used the gui to convert a trailer for the 3ds..i have a 3dsxl btw..i ran it...the quality is fine and everything but the trailer stutters in places.....i tried to decrease the quality change framerates and everything..but the movie stutters...always..can anybody help me?

Posted : Saturday, 04 January 2014, 14:55
sonicrings4


I have a problem. I used this converter to convert an avi file of a 3D video where you can see both left and right frames on the 3DS. After the conversion was finished, I opened it on my computer and saw 2 separate windows open, one for each eye, instead of one window with 2 screens. However, I have tried naming it HNI_0003.AVI NIN_0004.AVI and 3DS_0005.AVI
I formatted an 8 GB SD card lying around and put those files along with the 3D one where it shows 2 frames in 1 window and a 2D version (they are all 10 minutes) but I can only see the 2D and 3D (2 frames 1 window) files in my 3DS camera. Can someone please help? I've been pulling my hair out for days trying to play a movie in 3D. Please email me at *removed email address* with any advise. Thanks!

EDIT: This software does not work. A very similar software, called 3DS Video, however, does work, so give 3DS Video v 1.32 a try!

Latest Posts
Happy Easter
Kuron Sun 08:08
Jay gets a Wii U
Jayenkai Sun 07:14
Win7 Installing
dna Sat 13:32
A New Theme!?
Jayenkai Sat 05:30
Ramble ramble/finishing stuff
therevillsgames Fri 19:41
Mint
Dabz Fri 01:02
Joe's Storytime
spinal Thu 13:31
Rest Period
Kuron Wed 22:24
RollerCoaster Tycoon 4
rychan Wed 04:44
Password Security Safety
dna Tue 20:48
More

Latest Items
Blog : DX9Engine
caligula Fri 06:39
Blog : EmuMenu
rickdangerous Fri 04:16
Showcase : BambooBasic
Dabz Thu 18:46
Blog : FInally Some Game Dev Time
rychan Thu 15:35
Family : :c(
steve_ancell Thu 04:58
Showcase : isometric prototype
Jayenkai Thu 04:31
Showcase : dungeon maker algorithm
Jayenkai Wed 01:42
Dev-Diary : More Screens
Kuron Sat 09:01
News : Newsletter #221
Dabz Fri 10:07
Dev-Diary : Crystal Catch Development
rychan Thu 14:38
Link : Sfxr
rychan Thu 04:16
Showcase : SpringySquirrel
Jayenkai Tue 22:58
Dev-Diary : More Planning and Framework Learning
rychan Tue 17:23
Dev-Diary : Another Song
Kuron Tue 09:10
Link : Free 3D characters!
Jayenkai Mon 05:48
More

Who's Online
9572AD
Sun, at 08:48
Jayenkai
Sun, at 08:48
shroom_monk
Sun, at 08:42
spinal
Sun, at 08:34
Kuron
Sun, at 08:08
rockford
Sun, at 04:54
rychan
Sun, at 03:23
therevillsgames
Sun, at 01:55
Stealth
Sun, at 00:12
Evil Roy Ferguson
Sat, at 20:14
Link to this page
Site : Jayenkai 2006-Infinity | MudChat's origins, BBCode's former life, Image Scaler.